Скачать через торрент Шериф и мальчик пришелец The sheriff and the satellite kid Фильм бесплатно в хорошем качестве torrent

Скачивайте на UnionPeer.org фильмы через торрент без регистрации. Новинки кино в хорошем качестве через торрент. На UnionPeer.org можно скачать через торрент фильмы 2014 и 2015 годов. Самые новые фильмы.

Скачать торрент Шериф и мальчик пришелец The sheriff and the satellite kid бесплатно через .torrent фильм мультфильм сериал

Статистика раздачи
Размер:  744 MB   |    Зарегистрирован:  5 лет 8 месяцев   |    .torrent скачан:  11 раз   |   
Раздают:  1  
   
загрузка...
 
Автор Сообщение

Galfimbul

avatar Galfimbul


Шериф и мальчик пришелец / The sheriff and the satellite kid

Год выпуска: 1979
Страна: Италия
Жанр: фантастика, боевик, комедия
Продолжительность: 01:28:59.799 (133495 frames)
Перевод: Любительский (одноголосый закадровый)
Русские субтитры: нет

Режиссер: Микеле Лупо / Michele Lupo

В ролях: Бад Спенсер, Раймонд Хармсторф, Кэри Гуффи, Джо Багнер, Карло Реали, Харольд Э. Финч, Джанкарло Бастианони, Джованни Чанфрилья

Описание: После прибытия на Землю из космоса, молодой гуманоид (с виду обычный мальчишка) случайно попадает в руки шерифа Холла (Б.Спенсер) и говорит что его зовут Н 725...

Качество: DVDRip
Формат: AVI
Видео кодек: XviD
Аудио кодек: MP3
Видео: 688x368 (1.87:1), 25 fps, XviD MPEG-4 ~1031 kbps avg, 0.16 bit/pixel
Audio: 48 kHz, MPEG Layer 3, 2 ch, ~128.00 kbps avg
General
Complete name : D:\фильмы\sherif_i_malchik_prishelec_745_[torrents.ru]_by_bm11.avi
Format : AVI
Format/Info : Audio Video Interleave
File size : 744 MiB
Duration : 1h 28mn
Overall bit rate : 1 170 Kbps
Writing application : VirtualDubMod 1.5.10.2 (build 2540/release)
Writing library : VirtualDubMod build 2540/release
Video
Format : MPEG-4 Visual
Format profile : Streaming Video@L1
Format settings, BVOP : Yes
Format settings, QPel : No
Format settings, GMC : No warppoints
Format settings, Matrix : Default
Muxing mode : Packed bitstream
Codec ID : XVID
Codec ID/Hint : XviD
Duration : 1h 28mn
Bit rate : 1 032 Kbps
Width : 688 pixels
Height : 368 pixels
Display aspect ratio : 1.870
Frame rate : 25.000 fps
Resolution : 24 bits
Colorimetry : 4:2:0
Scan type : Progressive
Bits/(Pixel*Frame) : 0.163
Stream size : 657 MiB (88%)
Writing library : XviD 50
Audio
Format : MPEG Audio
Format version : Version 1
Format profile : Layer 3
Codec ID : 55
Codec ID/Hint : MP3
Duration : 1h 28mn
Bit rate mode : Constant
Bit rate : 128 Kbps
Channel(s) : 2 channels
Sampling rate : 48.0 KHz
Resolution : 16 bits
Stream size : 81.5 MiB (11%)
Alignment : Aligned on interleaves
Interleave, duration : 40 ms (1.00 video frame)
Interleave, preload duration : 504 ms
Writing library : LAME3.90.3
Релиз группы:




Трекер:  [ 04-Апр-2013 20:29 ]

  

Скачать .torrent

Размер .torrent файла 15 KB


Размер: 744 MB
Хэш (hash) релиза: 338b75f8657909f012bfd38b7cbfb6c10be952b2
Подписка на обновления:

Еще никто не оставлял запись к записи скачать торрент Шериф и мальчик пришелец The sheriff and the satellite kid . Будь первым!

!Обратная связь