Скачать через торрент В погоне за НЛО: Маленький пришелец Chasing UFOs: Alien Baby Farm. Фильм бесплатно в хорошем качестве torrent

Скачивайте на UnionPeer.org фильмы через торрент без регистрации. Новинки кино в хорошем качестве через торрент. На UnionPeer.org можно скачать через торрент фильмы 2014 и 2015 годов. Самые новые фильмы.

Скачать торрент В погоне за НЛО: Маленький пришелец Chasing UFOs: Alien Baby Farm. бесплатно через .torrent фильм мультфильм сериал

Статистика раздачи
Размер:  607 MB   |    Зарегистрирован:  5 лет 9 месяцев   |    .torrent скачан:  46 раз   |   
Раздают:  1  
   
загрузка...
 
Автор Сообщение

Galfimbul

avatar Galfimbul


В погоне за НЛО: Маленький пришелец / Chasing UFOs: Alien Baby Farm.

Год выпуска: 2012
Страна: США
Жанр: Документальный
Продолжительность: 00:44:42
Перевод: Профессиональный (одноголосый)

Описание: Команда квалифицированных исследователей ставит своей целью раскрыть правду об НЛО. Но они не просто ищут истории о внеземной деятельности - они хотят получить и ответы на эти вопросы. Группа ученыи и исследователей НЛО расследуют некоторые из наиболее загадочных наблюдений на планете, чтобы найти новые ошеломляющие доказательства. Данные, которые они собирают открывают совершенно новую картину того, что мы знаем про эти странные огни в небе.

Качество: SATRip
Формат: AVI
Видео кодек: XviD
Аудио кодек: MP3
Видео: XviD MPEG-4, 1748 Кбит/сек, 704 x 400 (1.760) at 25.000 fps
Аудио: 48 kHz, MPEG Layer 3, 2 ch, ~128.00 kbps avg

ОбщееПолное имя : E:\Downloads\55\Chasing.UFOs-Alien.Baby.Far.Season.1.Episode.8.(2012).PDTVRip.by.Shel.&.Roumek.aviФормат : AVIФормат/Информация : Audio Video InterleaveРазмер файла : 607 МбайтПродолжительность : 44 м.Общий поток : 1889 Кбит/секБиблиотека кодирования : TMPGEnc 4.0 XPress Version. 4.7.7.307

ВидеоИдентификатор : 0Формат : MPEG-4 VisualПрофиль формата : Advanced Simple@L5Параметр BVOP формата : 2Параметр QPel формата : НетПараметр GMC формата : Без точки переходаПараметр матрицы формата : Default (H.263)Режим смешивания : Сжатый битовый потокИдентификатор кодека : XVIDИдентификатор кодека/Подсказка : XviDПродолжительность : 44 м.Битрейт : 1748 Кбит/секШирина : 704 пикс.Высота : 400 пикс.Соотношение сторон : 16:9Частота кадров : 25,000 кадр/секЦветовое пространство : YUVПодвыборка цветности : 4:2:0Битовая глубина : 8 битТип развёртки : ПрогрессивнаяМетод сжатия : С потерямиБит/(Пиксели*Кадры) : 0.248Размер потока : 561 Мбайт (93%)Библиотека кодирования : XviD 1.2.1 (UTC 2008-12-04)

АудиоИдентификатор : 1Формат : MPEG AudioВерсия формата : Version 1Профиль формата : Layer 3Режим : Joint stereoРасширение режима : MS StereoИдентификатор кодека : 55Идентификатор кодека/Подсказка : MP3Продолжительность : 44 м.Вид битрейта : ПостоянныйБитрейт : 128 Кбит/секКаналы : 2 каналаЧастота : 48,0 КГцМетод сжатия : С потерямиРазмер потока : 41,1 Мбайт (7%)Выравнивание : Соединение по промежуткамПродолжительность промежутка : 40 мс. (1,01 видеокадр)Время предзагрузки промежутка : 384 ms
Раздача группы:

Релиз: Roumek

Трекер:  [ 28-Фев-2013 09:30 ]

  

Скачать .torrent

Размер .torrent файла 12 KB


Размер: 607 MB
Хэш (hash) релиза: 20c6dc70dc5b54a6c355c849f34600c7093cee8c
Подписка на обновления:

bot

Топик был перенесен из форума Документалистика (BD|HD|DVD|Rip) в форум Документальные фильмы и телепередачи

Galfimbul

Хотите добавить комментарий к записи скачать торрент В погоне за НЛО: Маленький пришелец Chasing UFOs: Alien Baby Farm.

!Обратная связь