Скачать через торрент Пришелец из будущего Returner Фильм бесплатно в хорошем качестве torrent

Скачивайте на UnionPeer.org фильмы через торрент без регистрации. Новинки кино в хорошем качестве через торрент. На UnionPeer.org можно скачать через торрент фильмы 2014 и 2015 годов. Самые новые фильмы.

Скачать торрент Пришелец из будущего Returner бесплатно через .torrent фильм мультфильм сериал

Статистика раздачи
Размер:  4.72 GB   |    Зарегистрирован:  6 лет 1 месяц   |    .torrent скачан:  83 раза   |   
Раздают:  1  
   
загрузка...
 
Автор Сообщение

nCore

avatar nCore


Пришелец из будущего / Returner / Ritana
Год выпуска: 2002
Страна: Япония
Жанр: фантастика, боевик, приключения
Продолжительность: 01:52:46

Перевод: Профессиональный (двухголосый закадровый)
Cубтитры: русские, английские
Оригинальная аудиодорожка: японский

Режиссер: Такаши Ямазаки / Takashi Yamazaki
В ролях: Такеши Канеширо, Энн Сузуки, Кирин Кики, Горо Кишитани, Юкико Окамото, Митсуру Мурата, Кисуке Иида, Казуя Шимицу, Чихару Кавай, Дин Хэррингтон

Описание: В недалеком будущем всему человечеству грозит неминуемая гибель из-за конфликта, произошедшего каких-то сто лет назад, между землянами и инопланетянами. На тот момент человечество уже изобрело машину времени и посылает в прошлое девочку Милле в надежде на то, что она сможет повернуть ход истории и нам удастся избежать кровопролития. В нашем настоящем она встречает Масашито — наемного убийцу. Вместе они должны остановить грядущий апокалипсис.



Сэмпл: http://multi-up.com/781903

Тип релиза: BDRip 720p (LCHD)
Контейнер: MKV
Видео: 1280x552p (2.35:1), 23.976 fps, 4924 kbps
Аудио 1: Русский AC3 5.1, 48 kHz, 448 kbps — Профессиональный (двухголосый закадровый)
Аудио 2: Японский AC3 5.1, 48 kHz, 640 kbps — Original Japan
Формат субтитров: softsub (SRT)
General
Unique ID : 247097350610882672920788096922691651140 (0xB9E537FAE3CC2D308C4F7856BAFD4644)
Complete name : D:\Фильмы (720 и 1080p)\Returner. 2002. 720p. BluRay. x264-LCHD.RUS.JAP.mkv
Format : Matroska
Format version : Version 2
File size : 4.72 GiB
Duration : 1h 52mn
Overall bit rate : 5 995 Kbps
Encoded date : UTC 2012-10-28 14:02:05
Writing application : mkvmerge v5.4.0 ('Piper') built on Mar 10 2012 13:34:39
Writing library : libebml v1.2.3 + libmatroska v1.3.0

Video
ID : 1
Format : AVC
Format/Info : Advanced Video Codec
Format profile : <a href="mailto:High@L4.1" class="postLink">High@L4.1</a>
Format settings, CABAC : Yes
Format settings, ReFrames : 5 frames
Codec ID : V_MPEG4/ISO/AVC
Duration : 1h 52mn
Bit rate : 4 924 Kbps
Width : 1 280 pixels
Height : 552 pixels
Display aspect ratio : 2.35:1
Frame rate mode : Constant
Frame rate : 23.976 fps
Color space : YUV
Chroma subsampling : 4:2:0
Bit depth : 8 bits
Scan type : Progressive
Bits/(Pixel*Frame) : 0.291
Stream size : 3.77 GiB (80%)
Writing library : x264 core 94 r1570 d9db8b3
Encoding settings : cabac=1 / ref=5 / deblock=1:-1:-1 / analyse=0x3:0x113 / me=umh / subme=7 / psy=1 / psy_rd=1.00:0.00 / mixed_ref=1 / me_range=16 / chroma_me=1 / trellis=2 / 8x8dct=1 / cqm=0 / deadzone=21,11 / fast_pskip=1 / chroma_qp_offset=-2 / threads=12 / sliced_threads=0 / nr=0 / decimate=1 / interlaced=0 / constrained_intra=0 / bframes=3 / b_pyramid=2 / b_adapt=2 / b_bias=0 / direct=3 / wpredb=1 / wpredp=2 / keyint=250 / keyint_min=25 / scenecut=40 / intra_refresh=0 / rc_lookahead=40 / rc=2pass / mbtree=1 / bitrate=4924 / ratetol=1.0 / qcomp=0.60 / qpmin=10 / qpmax=51 / qpstep=4 / cplxblur=20.0 / qblur=0.5 / vbv_maxrate=50000 / vbv_bufsize=50000 / ip_ratio=1.40 / aq=1:1.00 / nal_hrd=none
Language : Japanese
Default : No
Forced : No

Audio #1
ID : 2
Format : AC-3
Format/Info : Audio Coding 3
Mode extension : CM (complete main)
Format settings, Endianness : Big
Codec ID : A_AC3
Duration : 1h 52mn
Bit rate mode : Constant
Bit rate : 448 Kbps
Channel(s) : 6 channels
Channel positions : Front: L C R, Side: L R, LFE
Sampling rate : 48.0 KHz
Bit depth : 16 bits
Compression mode : Lossy
Stream size : 361 MiB (7%)
Title : DVO
Language : Russian
Default : Yes
Forced : No

Audio #2
ID : 3
Format : AC-3
Format/Info : Audio Coding 3
Mode extension : CM (complete main)
Format settings, Endianness : Big
Codec ID : A_AC3
Duration : 1h 52mn
Bit rate mode : Constant
Bit rate : 640 Kbps
Channel(s) : 6 channels
Channel positions : Front: L C R, Side: L R, LFE
Sampling rate : 48.0 KHz
Bit depth : 16 bits
Compression mode : Lossy
Stream size : 516 MiB (11%)
Language : Japanese
Default : No
Forced : No

Text #1
ID : 4
Format : UTF-8
Codec ID : S_TEXT/UTF8
Codec ID/Info : UTF-8 Plain Text
Language : Russian
Default : No
Forced : No

Text #2
ID : 5
Format : UTF-8
Codec ID : S_TEXT/UTF8
Codec ID/Info : UTF-8 Plain Text
Language : English
Default : No
Forced : No


Трекер:  [ 04-Ноя-2012 12:53 ]

  

Скачать .torrent

Размер .torrent файла 24 KB


Размер: 4.72 GB
Хэш (hash) релиза: 6c59f77b93f1870b02cdd94cc69fbf10e0d2a863
Подписка на обновления:

Еще никто не оставлял запись к записи скачать торрент Пришелец из будущего Returner . Будь первым!

!Обратная связь