Скачать через торрент Пришелец из космоса Это прибыло из космоса Фильм бесплатно в хорошем качестве torrent

Скачивайте на UnionPeer.org фильмы через торрент без регистрации. Новинки кино в хорошем качестве через торрент. На UnionPeer.org можно скачать через торрент фильмы 2014 и 2015 годов. Самые новые фильмы.

Скачать торрент Пришелец из космоса Это прибыло из космоса бесплатно через .torrent фильм мультфильм сериал

Статистика раздачи
Размер:  18.34 GB   |    Зарегистрирован:  1 год 9 месяцев   |    .torrent скачан:  69 раз   |   
Раздают:  1  
   
загрузка...
 
Автор Сообщение

Galfimbul

avatar Galfimbul


Пришелец из космоса / Это прибыло из космоса / It Came from Outer Space«Terror In 3-D... Reaching From The Screen To Seize You In Its Grasp!...»

Год выпуска: 1953
Страна: США
Жанр: фантастика, триллер
Продолжительность: 01:20:18



Перевод: Профессиональный (многоголосый закадровый) Объединение "Русский дубляж" по заказу СТС
Субтитры: английские [Full, SDH, Commentary]
Оригинальная аудиодорожка: английский



Режиссер: Джек Арнольд / Jack Arnold

В ролях: Ричард Карлсон, Барбара Раш, Чарльз Дрэйк, Джо Сойер, Расселл Джонсон, Кэтлин Хьюз, Ральф Брукс, Роберт Карсон, Нед Девенпорт, Эдгар Диаринг



Описание: Джон Путман и Эллен наблюдают за шумным и сопровождаемым вспышками света падением какого-то крупного объекта вблизи местного рудника. Джон и Эллен - единственные, кто верят, что загадочный объект - не метеорит, а потерпевший крушение космический корабль инопланетян. В последующие дни с некоторыми местными жителями происходят необъяснимые явления.Джон и Эллен подозревают, что этих людей забирают на космический корабль для экспериментов, а потом после каких-то манипуляций возвращают назад уже измененными. Местный шериф не знает, что и думать об этих фантастических версиях, и снаряжает отряд для разведки. Путман предпочитает провести собственное расследования мирным путем. Без оружия он добровольно поднимается на борт корабля пришельцев.



Качество: BDRemux 1080p
Контейнер: MKV
Формат 3D: BD3DRemux-MKV
Видео кодек: h.264
Аудио кодек: AC3 / DTS-HD MA

Видео: MPEG-4 AVC / NTSC 16:9 / 1920x1080 (1,37:1) / 29887|17998 kbps / 23,976 fps / 0.601 bit/pixel / Stereo High@L4.1 / High@L4.1
Аудио 1: Russian / Dolby Digital Audio / 2.0 Ch / 48 kHz / 192 kbps / 16 bit | MVO | Объединение "Русский дубляж" по заказу СТС
Аудио 2: English / DTS-HD Master Audio / 3.0 Ch / 48 kHz / 2423 kbps / 24-bit (DTS Core: 2.0 Ch / 48 kHz / 1509 kbps / 24-bit) / Original
Аудио 3: English / Dolby Digital Audio / 2.0 Ch / 48 kHz / 192 kbps / 16 bit | Commentary by Film Historian Tom Weaver
Навигация по главам: есть
Общее
Уникальный идентификатор                 : 229906860834331772903707837093045708346 (0xACF67365AB2E3E42BB0CB1CAC111A63A)
Полное имя                               : F:\It Came From Outer Space.1953.3D.BDRemux.1080p.mkv
Формат                                   : Matroska
Версия формата                           : Version 4 / Version 2
Размер файла                             : 18,3 Гбайт
Продолжительность                        : 1 ч. 20 м.
Режим общего битрейта                    : Переменный
Общий поток                              : 32,7 Мбит/сек
Название фильма                          : Release for RuTracker © flaSI-I
Дата кодирования                         : UTC 2016-10-08 16:49:49
Программа кодирования                    : mkvmerge v9.4.2 ('So High') 64bit
Библиотека кодирования                   : libebml v1.3.4 + libmatroska v1.4.5

Видео
Идентификатор                            : 1
Формат                                   : AVC
Формат/Информация                        : Advanced Video Codec
Профиль формата                          : Stereo High@L4.1 / High@L4.1
MultiView_Count                          : 2
Параметр CABAC формата                   : Да
Параметр ReFrames формата                : 3 кадра
Параметр GOP формата                     : M=1, N=12
Идентификатор кодека                     : V_MPEG4/ISO/AVC
Продолжительность                        : 1 ч. 20 м.
Вид битрейта                             : Переменный
Битрейт                                  : 29,9 Мбит/сек
Максимальный битрейт                     : 22,0 Мбит/сек
Ширина                                   : 1920 пикселей
Высота                                   : 1080 пикселей
Соотношение сторон                       : 16:9
Режим частоты кадров                     : Постоянный
Частота кадров                           : 23,976 (24000/1001) кадра/сек
Цветовое пространство                    : YUV
Субдискретизация насыщенности            : 4:2:0
Битовая глубина                          : 8 бит
Тип развёртки                            : Прогрессивная
Бит/(Пиксели*Кадры)                      : 0.601
Размер потока                            : 16,8 Гбайт (91%)
Язык                                     : English
Default                                  : Да
Forced                                   : Нет

Аудио #1
Идентификатор                            : 2
Формат                                   : AC-3
Формат/Информация                        : Audio Coding 3
Расширение режима                        : CM (complete main)
Параметр Endianness формата              : Big
Идентификатор кодека                     : A_AC3
Продолжительность                        : 1 ч. 20 м.
Вид битрейта                             : Постоянный
Битрейт                                  : 192 Кбит/сек
Каналы                                   : 2 канала
Расположение каналов                     : Front: L R
Частота                                  : 48,0 КГц
Частота кадров                           : 31,250 кадров/сек (1536 spf)
Метод сжатия                             : С потерями
Размер потока                            : 110 Мбайт (1%)
Заголовок                                : MVO | Объединение "Русский дубляж" по заказу СТС
Язык                                     : Russian
Default                                  : Да
Forced                                   : Нет

Аудио #2
Идентификатор                            : 3
Формат                                   : DTS
Формат/Информация                        : Digital Theater Systems
Профиль формата                          : MA / Core
Режим                                    : 16
Параметр Endianness формата              : Big
Идентификатор кодека                     : A_DTS
Продолжительность                        : 1 ч. 20 м.
Вид битрейта                             : Переменный / Постоянный
Битрейт                                  : 2423 Кбит/сек / 1509 Кбит/сек
Каналы                                   : 3 канала
Расположение каналов                     : Front: L C R
Частота                                  : 48,0 КГц
Частота кадров                           : 93,750 кадра/сек (512 spf)
Битовая глубина                          : 24 бит
Метод сжатия                             : Без потерь / Lossy
Размер потока                            : 1,36 Гбайт (7%)
Заголовок                                : Original | DTS-HD MA 3.0
Язык                                     : English
Default                                  : Нет
Forced                                   : Нет

Аудио #3
Идентификатор                            : 4
Формат                                   : AC-3
Формат/Информация                        : Audio Coding 3
Расширение режима                        : CM (complete main)
Параметр Endianness формата              : Big
Идентификатор кодека                     : A_AC3
Продолжительность                        : 1 ч. 20 м.
Вид битрейта                             : Постоянный
Битрейт                                  : 192 Кбит/сек
Каналы                                   : 2 канала
Расположение каналов                     : Front: L R
Частота                                  : 48,0 КГц
Частота кадров                           : 31,250 кадров/сек (1536 spf)
Метод сжатия                             : С потерями
Размер потока                            : 110 Мбайт (1%)
Заголовок                                : Commentary by Film Historian Tom Weaver | DD 2.0
Язык                                     : English
Default                                  : Нет
Forced                                   : Нет

Текст #1
Идентификатор                            : 5
Формат                                   : UTF-8
Идентификатор кодека                     : S_TEXT/UTF8
Идентификатор кодека/Информация          : UTF-8 Plain Text
Продолжительность                        : 1 ч. 18 м.
Битрейт                                  : 54 бит/сек
Count of elements                        : 866
Размер потока                            : 31,2 Кбайт (0%)
Заголовок                                : FULL
Язык                                     : English
Default                                  : Нет
Forced                                   : Нет

Текст #2
Идентификатор                            : 6
Формат                                   : UTF-8
Идентификатор кодека                     : S_TEXT/UTF8
Идентификатор кодека/Информация          : UTF-8 Plain Text
Продолжительность                        : 1 ч. 18 м.
Битрейт                                  : 55 бит/сек
Count of elements                        : 910
Размер потока                            : 32,1 Кбайт (0%)
Заголовок                                : SDH
Язык                                     : English
Default                                  : Нет
Forced                                   : Нет

Текст #3
Идентификатор                            : 7
Формат                                   : UTF-8
Идентификатор кодека                     : S_TEXT/UTF8
Идентификатор кодека/Информация          : UTF-8 Plain Text
Продолжительность                        : 1 ч. 20 м.
Битрейт                                  : 176 бит/сек
Count of elements                        : 1736
Размер потока                            : 103 Кбайт (0%)
Заголовок                                : Commentary by Film Historian Tom Weaver
Язык                                     : English
Default                                  : Нет
Forced                                   : Нет

Меню
00:00:00.000                             : en:Chapter 1
00:03:32.879                             : en:Chapter 2
00:09:58.932                             : en:Chapter 3
00:14:29.035                             : en:Chapter 4
00:17:50.027                             : en:Chapter 5
00:20:27.059                             : en:Chapter 6
00:22:20.756                             : en:Chapter 7
00:32:03.547                             : en:Chapter 8
00:41:37.453                             : en:Chapter 9
00:43:51.712                             : en:Chapter 10
00:52:15.132                             : en:Chapter 11
00:56:37.144                             : en:Chapter 12
01:02:24.491                             : en:Chapter 13
01:07:09.317                             : en:Chapter 14
01:12:45.444                             : en:Chapter 15
01:14:59.912                             : en:Chapter 16
01:18:31.749                             : en:Chapter 17
01:19:13.958                             : en:Chapter 18


Трекер:  [ 27-Фев-2017 17:00 ]

  

Скачать .torrent

Размер .torrent файла 92 KB


Размер: 18.34 GB
Хэш (hash) релиза: 2b94d2249d68ef0903e5b5dbb2890e991433c13e
Подписка на обновления:

Торренты, похожие на Пришелец из космоса Это прибыло из космоса скачать торрент

Форум Название Автор Размер S L Добавлен
Зарубежные фильмы до 2016 ·· Пришелец из космоса / Это прибыло из космоса / It Came from Outer Space (Джек Арнольд / Jack Arnold) [1953, США, ужасы, фантастика, триллер, мелодрама, WEB-DL 720p] MVO + Sub Eng + Original Eng + Comm Galfimbul 30096835992.8 GB 0 0 1415585121

05:05

10-Ноя-14

Еще никто не оставлял запись к записи скачать торрент Пришелец из космоса Это прибыло из космоса . Будь первым!

!Обратная связь