Скачать через торрент Ванда и Пришелец Wanda and the Alien Фильм бесплатно в хорошем качестве torrent

Скачивайте на UnionPeer.org фильмы через торрент без регистрации. Новинки кино в хорошем качестве через торрент. На UnionPeer.org можно скачать через торрент фильмы 2014 и 2015 годов. Самые новые фильмы.

Скачать торрент Ванда и Пришелец Wanda and the Alien бесплатно через .torrent фильм мультфильм сериал

Статистика раздачи
Размер:  4.65 GB   |    Зарегистрирован:  2 года 11 месяцев   |    .torrent скачан:  39 раз   |   
Раздают:  1  
   
загрузка...
 
Автор Сообщение

Galfimbul

avatar Galfimbul


Ванда и Пришелец / Wanda and the Alien

Страна: Великобритания
Жанр: Детский, семейный, сказка
Продолжительность: 00:10:00
Год выпуска: 2014-2015
Перевод: Профессиональный (дублированный)
Русские субтитры: нет

Режиссёр: Уил Брентон, Джес Холл / Will Brenton, Jez Hall
Роли озвучивали: нет

Описание: Мультсериал для маленьких от канала Nick Jr. про крольчиху Ванду и пришельца. Ванда находит пришельца и они становятся лучшими друзьями. Пришелец обладает паранормальными (магическими) способностями которые помогают им в забавах.
Основан на одноимённых книгах Sue Hendra изданных в 2011 году. Мультсериал повторяет стиль иллюстраций книг.

Доп. информация: Список серий взят отсюда: http://www.imdb.com/title/tt4543878/ , http://www.channel5.com/shows/wanda-and-the-alien/episodes

Ссылка на предыдущие и альтернативные раздачи: [url]...5113030[/url]
Семпл: http://multi-up.com/1080136
Релиз:

Качество: SATRip
Формат: AVI
Видео: 704x400 (16:9), 25 fps, XviD build 64 ~1149 kbps avg, 0.16 bit/pixel
Аудио: 48 kHz, MPEG Layer 3, 2 ch, ~128.00 kbps avg
Субтитры: отсутствуют
01 Радужная живопись.avi02 Нелопающиеся пузыри.avi03 Тыквы.avi04 Кроличий танец.avi05 Звезда для Ванды.avi06 Эй, волна! Лови меня.avi07 Падающий лист.avi08 Классики.avi09 Потерянные в облаке.avi10 Тени.avi11 Стрекоза.avi12 Прятки.avi13 Чудесный синий.avi14 Луч солнца.avi15 Подсолнух.avi16 Кексокамни пришельца.avi17 Очень скользкий день.avi18 Квом.avi19 Луна.avi20 Новый голос Ванды.avi21 Piggy in the Middle - отсутствует22 In the Garden - отсутствует23 Лиловый бегемот.avi24 Снова друзья.avi25 Паук в доме.avi26 Летающие кролики.avi27 Колыбельная.avi28 Под землёй.avi29 Новые тропинки.avi30 Яйцо.avi31 Парашюты и вертолёты.avi32 Овечье путешествие.avi33 Икота.avi34 Тренировка.avi35 Драгоценные капельки.avi36 Квостуда.avi37 Морская звезда.avi38 Щекотка.avi39 Место для игры.avi40 Сломанное колесо.avi41 Пора пить чай.avi42 Квоктор.avi43 Волшебные мелодии.avi44 Облака на Квоме.avi45 Квобака.avi46 Снежная сказка.avi47 Колокольчики.avi48 Снежная чечётка.avi49 Посмотреть всё.avi50 Дом, милый Квом.avi51 Семейный портрет.avi52 Орехи.avi53 Лови!.avi54 Пчёлы и мёд.avi
ОбщееПолное имя : F:\01 РАЗДАЧИ МУЛЬТ\Ванда и пришелец\Ванда и пришелец\01 Радужная живопись.aviФормат : AVIФормат/Информация : Audio Video InterleaveРазмер файла : 91,8 МбайтПродолжительность : 9 м. 56 с.Общий поток : 1291 Кбит/секПрограмма кодирования : Lavf54.63.100

ВидеоИдентификатор : 0Формат : MPEG-4 VisualПрофиль формата : Simple@L3Параметр BVOP формата : НетПараметр QPel формата : НетПараметр GMC формата : Без точки переходаПараметр матрицы формата : Default (H.263)Идентификатор кодека : XVIDИдентификатор кодека/Подсказка : XviDПродолжительность : 9 м. 56 с.Битрейт : 1150 Кбит/секШирина : 704 пикселяВысота : 400 пикселейСоотношение сторон : 16:9Частота кадров : 25,000 кадров/секЦветовое пространство : YUVСубдискретизация насыщенности : 4:2:0Битовая глубина : 8 битТип развёртки : ПрогрессивнаяМетод сжатия : С потерямиБит/(Пиксели*Кадры) : 0.163Размер потока : 81,8 Мбайт (89%)Библиотека кодирования : XviD 64

АудиоИдентификатор : 1Формат : MPEG AudioВерсия формата : Version 1Профиль формата : Layer 3Идентификатор кодека : 55Идентификатор кодека/Подсказка : MP3Продолжительность : 9 м. 56 с.Вид битрейта : ПостоянныйБитрейт : 128 Кбит/секКаналы : 2 каналаЧастота : 48,0 КГцМетод сжатия : С потерямиРазмер потока : 9,11 Мбайт (10%)Выравнивание : Соединение по промежуткамПродолжительность промежутка : 24 мс. (0,60 видеокадр)Время предзагрузки промежутка : 24 мс.Библиотека кодирования : LAME3.99.5ЄЄЄЄЄЄЄЄЄЄ


Трекер:  [ 20-Дек-2015 08:30 ]

  

Скачать .torrent

Размер .torrent файла 27 KB


Размер: 4.65 GB
Хэш (hash) релиза: 867e747a3824c3444f4dc3d3c1b62dfe897dbd5b
Подписка на обновления:

Еще никто не оставлял запись к записи скачать торрент Ванда и Пришелец Wanda and the Alien . Будь первым!

!Обратная связь