Скачать через торрент Годзилла против Космогодзиллы Годзилла и пришелец из космоса Фильм бесплатно в хорошем качестве torrent

Скачивайте на UnionPeer.org фильмы через торрент без регистрации. Новинки кино в хорошем качестве через торрент. На UnionPeer.org можно скачать через торрент фильмы 2014 и 2015 годов. Самые новые фильмы.

Скачать торрент Годзилла против Космогодзиллы Годзилла и пришелец из космоса бесплатно через .torrent фильм мультфильм сериал

Статистика раздачи
Размер:  1.46 GB   |    Зарегистрирован:  3 года 6 месяцев   |    .torrent скачан:  45 раз   |   
Раздают:  1  
   
загрузка...
 
Автор Сообщение

Galfimbul

avatar Galfimbul


Годзилла против Космогодзиллы / Годзилла и пришелец из космоса / Godzilla vs. SpaceGodzilla
Страна: Япония
Жанр: Фантастика
Год выпуска: 1994
Продолжительность: 01:47:52

Перевод: Авторский (одноголосый закадровый) Александр Кашкин (Первомайский)
Cубтитры: нет
Оригинальная аудиодорожка: Японский

Режиссер: Кэнсё Ямасита / Kensho Yamashita

В ролях: Юн Хашизуми /Jun Hashizume/ Мегуми Одака /Megumi Odaka/ Тавакo Йошикава /Towako Yoshikawa/ Акиро Емото /Akira Emoto/ Кендзи Сахара /Kenji Sahara/

Описание: На этот раз люди разработали два проекта по противодействию Годзилле: первый - под названием МОГЕРА - Мобильный Аэрокосмический Робот; второй - проект "Т" - усиливающий телепатический передатчик, через который возможно контролировать Годзиллу. Однако, в эти планы вмешивается Космо-Годзилла - космический монстр, порожденный клетками Годзиллы и кристаллической материей неизвестного науке происхождения. Такое развитие событий вынуждает людей в спешке направить в космос МОГЕРУ на перехват космического пришельца, а против Годзиллы использовать проект "Т".

Доп. информация: Русский звук синхронизировал [url=...mode=viewprofile&u=6578132]*Sergeant_am*[/url]. Большое ему спасибо.
Исходник Blu-Ray Disc USA 1080p
Blu ray взят отсюда.
General
ID : 0 (0x0)
Complete name : Godzilla Vs. SpaceGodzilla\BDMV\STREAM\00001.m2ts
Format : BDAV
Format/Info : Blu-ray Video
File size : 27.5 GiB
Duration : 1h 47mn
Overall bit rate mode : Variable
Overall bit rate : 36.5 Mbps
Maximum Overall bit rate : 48.0 Mbps

Video
ID : 4113 (0x1011)
Menu ID : 1 (0x1)
Format : AVC
Format/Info : Advanced Video Codec
Format profile : High@L4.1
Format settings, CABAC : Yes
Format settings, ReFrames : 2 frames
Format settings, GOP : M=1, N=10
Codec ID : 27
Duration : 1h 47mn
Bit rate mode : Variable
Width : 1 920 pixels
Height : 1 080 pixels
Display aspect ratio : 16:9
Frame rate : 23.976 fps
Color space : YUV
Chroma subsampling : 4:2:0
Bit depth : 8 bits
Scan type : Progressive

Audio #1
ID : 4352 (0x1100)
Menu ID : 1 (0x1)
Format : DTS
Format/Info : Digital Theater Systems
Format profile : MA / Core
Mode : 16
Format settings, Endianness : Big
Muxing mode : Stream extension
Codec ID : 134
Duration : 1h 47mn
Bit rate mode : Variable
Bit rate : Unknown / 1 509 Kbps
Channel(s) : 6 channels
Channel positions : Front: L C R, Side: L R, LFE
Sampling rate : 48.0 KHz
Bit depth : 24 bits
Compression mode : Lossless / Lossy

Audio #2
ID : 4353 (0x1101)
Menu ID : 1 (0x1)
Format : DTS
Format/Info : Digital Theater Systems
Format profile : MA / Core
Mode : 16
Format settings, Endianness : Big
Muxing mode : Stream extension
Codec ID : 134
Duration : 1h 47mn
Bit rate mode : Variable
Bit rate : Unknown / 1 509 Kbps
Channel(s) : 6 channels
Channel positions : Front: L C R, Side: L R, LFE
Sampling rate : 48.0 KHz
Bit depth : 24 bits
Compression mode : Lossless / Lossy

Text #1
ID : 4608 (0x1200)
Menu ID : 1 (0x1)
Format : PGS
Codec ID : 144

Text #2
ID : 4609 (0x1201)
Menu ID : 1 (0x1)
Format : PGS
Codec ID : 144

Text #3
ID : 4610 (0x1202)
Menu ID : 1 (0x1)
Format : PGS
Codec ID : 144
Сэмпл

Качество видео: BDRip-AVC
Формат видео: MKV

Видео: 1152x624 (1,85:1), 23.976 fps, AVC ~1750 kbps avg, 0.102 bit/pixel
Аудио: AC3, 48 кГц, 192 Кбит/с, Dolby Digital 2.0
Общее
Уникальный идентификатор : 181517743148753397997810818713913981999 (0x888F0BB2C8B4FA6D91505F66A3A8FC2F)
Полное имя : D:\Годзилла и пришелец из космоса.(1.45).BDrip-AVC.mkv
Формат : Matroska
Версия формата : Version 4 / Version 2
Размер файла : 1,46 Гбайт
Продолжительность : 1 ч. 47 м.
Общий поток : 1944 Кбит/сек
Дата кодирования : UTC 2015-05-19 20:07:07
Программа кодирования : mkvmerge v6.7.0 ('Back to the Ground') 32bit built on Jan 8 2014 15:03:17
Библиотека кодирования : libebml v1.3.0 + libmatroska v1.4.1

Видео
Идентификатор : 1
Формат : AVC
Формат/Информация : Advanced Video Codec
Профиль формата : High@L4.1
Параметр CABAC формата : Да
Параметр ReFrames формата : 7 кадров
Идентификатор кодека : V_MPEG4/ISO/AVC
Продолжительность : 1 ч. 47 м.
Битрейт : 1750 Кбит/сек
Ширина : 1152 пикселя
Высота : 624 пикселя
Соотношение сторон : 1,85:1
Режим частоты кадров : Постоянный
Частота кадров : 23,976 кадра/сек
Цветовое пространство : YUV
Субдискретизация насыщенности : 4:2:0
Битовая глубина : 8 бит
Тип развёртки : Прогрессивная
Бит/(Пиксели*Кадры) : 0.102
Размер потока : 1,29 Гбайт (88%)
Библиотека кодирования : x264 core 146 r2538 121396c
Настройки программы : cabac=1 / ref=7 / deblock=1:-3:-3 / analyse=0x3:0x133 / me=umh / subme=9 / psy=1 / psy_rd=1.00:0.00 / mixed_ref=1 / me_range=32 / chroma_me=1 / trellis=2 / 8x8dct=1 / cqm=0 / deadzone=21,11 / fast_pskip=0 / chroma_qp_offset=-2 / threads=6 / lookahead_threads=1 / sliced_threads=0 / nr=0 / decimate=0 / interlaced=0 / bluray_compat=0 / constrained_intra=0 / bframes=10 / b_pyramid=2 / b_adapt=2 / b_bias=0 / direct=3 / weightb=1 / open_gop=0 / weightp=2 / keyint=240 / keyint_min=23 / scenecut=40 / intra_refresh=0 / rc_lookahead=40 / rc=2pass / mbtree=1 / bitrate=1750 / ratetol=1.0 / qcomp=0.70 / qpmin=0 / qpmax=69 / qpstep=4 / cplxblur=20.0 / qblur=0.5 / vbv_maxrate=50000 / vbv_bufsize=62500 / nal_hrd=none / filler=0 / ip_ratio=1.40 / aq=1:0.80
Default : Да
Forced : Нет

Аудио
Идентификатор : 2
Формат : AC-3
Формат/Информация : Audio Coding 3
Расширение режима : CM (complete main)
Параметр Endianness формата : Big
Идентификатор кодека : A_AC3
Продолжительность : 1 ч. 47 м.
Вид битрейта : Постоянный
Битрейт : 192 Кбит/сек
Каналы : 2 канала
Расположение каналов : Front: L R
Частота : 48,0 КГц
Битовая глубина : 16 бит
Метод сжатия : С потерями
Размер потока : 148 Мбайт (10%)
Default : Да
Forced : Нет


Трекер:  [ 20-Май-2015 21:00 ]

  

Скачать .torrent

Размер .torrent файла 15 KB


Размер: 1.46 GB
Хэш (hash) релиза: d0a8e5bec72e11012f0abd9c74657ce82617a784
Подписка на обновления:

Еще никто не оставлял запись к записи скачать торрент Годзилла против Космогодзиллы Годзилла и пришелец из космоса . Будь первым!

!Обратная связь