Скачать через торрент Пришелец в капусте Пришелец Ванюша Фильм бесплатно в хорошем качестве torrent

Скачивайте на UnionPeer.org фильмы через торрент без регистрации. Новинки кино в хорошем качестве через торрент. На UnionPeer.org можно скачать через торрент фильмы 2014 и 2015 годов. Самые новые фильмы.

Скачать торрент Пришелец в капусте Пришелец Ванюша бесплатно через .torrent фильм мультфильм сериал

Статистика раздачи
Размер:  921 MB   |    Зарегистрирован:  3 года 10 месяцев   |    .torrent скачан:  55 раз   |   
Раздают:  1  
   
загрузка...
 
Автор Сообщение

Galfimbul

avatar Galfimbul


Пришелец в капусте, Пришелец Ванюша, Ванюша и космический пират, Ванюша и великан

Год выпуска: 1989-1993
Страна: СCCР, Россия
Жанр: кукольный мультфильм
Продолжительность: 00:09:23 + 00:08:24 + 00:09:43 + 00:08:50
Русские субтитры: нет

Режиссёр: Владимир Данилевич

Описание: Сборник мультфильмов про инопланетянина Ванюшу. Современная фантастическая сказка для детей с участием Деда, Бабы их внука-инопланетянина Ванюши...

1. "Пришелец в капусте. 1 серия" 1989г
2. "Пришелец Ванюша. 2 серия" 1990г.
3. "Ванюша и космический пират. 3 серия" 1991г.
4. "Ванюша и великан. 4 серия" 1993г.

Доп. информация:



Релиз группы:

Трансляция спутникового канала:


Качество видео: DVB
Формат видео: MPEG-PS

Видео: MPEG2 Video, 720x576 (4:3), 25 fps, 3200 kbps
Аудио: MPEG Audiо, 2 сh, 48 kHz, 192 kbps
General
Complete name : D:\Пришелец в капусте\1c. Пришелец в капусте. (1989)_DVB by SLuMeP.mpg
Format : MPEG-PS
File size : 256 MiB
Duration : 9mn 23s
Overall bit rate mode : Variable
Overall bit rate : 3 811 Kbps

Video
ID : 224 (0xE0)
Format : MPEG Video
Format version : Version 2
Format profile : Main@Main
Format settings, BVOP : No
Format settings, Matrix : Custom
Format settings, GOP : M=3, N=12
Duration : 9mn 23s
Bit rate mode : Variable
Bit rate : 3 543 Kbps
Maximum bit rate : 5 000 Kbps
Width : 720 pixels
Height : 576 pixels
Display aspect ratio : 4:3
Frame rate : 25.000 fps
Standard : PAL
Color space : YUV
Chroma subsampling : 4:2:0
Bit depth : 8 bits
Scan type : Interlaced
Scan order : Top Field First
Compression mode : Lossy
Bits/(Pixel*Frame) : 0.342
Time code of first frame : 00:00:00:00
Time code source : Group of pictures header
Stream size : 238 MiB (93%)

Audio
ID : 192 (0xC0)
Format : MPEG Audio
Format version : Version 1
Format profile : Layer 2
Duration : 9mn 23s
Bit rate mode : Constant
Bit rate : 192 Kbps
Channel(s) : 2 channels
Sampling rate : 48.0 KHz
Compression mode : Lossy
Stream size : 12.9 MiB (5%)


Трекер:  [ 19-Янв-2015 21:00 ]

  

Скачать .torrent

Размер .torrent файла 19 KB


Размер: 921 MB
Хэш (hash) релиза: 899576e60f550c1504d8859d5818e0bdc13d8e8b
Подписка на обновления:

Торренты, похожие на Пришелец в капусте Пришелец Ванюша скачать торрент

Форум Название Автор Размер S L Добавлен
Мультфильмы до 2016 ·· Пришелец в капусте, Пришелец Ванюша, Ванюша и космический пират, Ванюша и великан (Владимир Данилевич) [1989-1993, Кукольный мультфильм, DVDRip] Galfimbul 628328448599 MB 0 0 1320348586

22:29

3-Ноя-11

Еще никто не оставлял запись к записи скачать торрент Пришелец в капусте Пришелец Ванюша . Будь первым!

!Обратная связь