Скачать через торрент Пришелец из будущего Returner Фильм бесплатно в хорошем качестве torrent

Скачивайте на UnionPeer.org фильмы через торрент без регистрации. Новинки кино в хорошем качестве через торрент. На UnionPeer.org можно скачать через торрент фильмы 2014 и 2015 годов. Самые новые фильмы.

Скачать торрент Пришелец из будущего Returner бесплатно через .torrent фильм мультфильм сериал

Статистика раздачи
Размер:  1.47 GB   |    Зарегистрирован:  3 года 11 месяцев   |    .torrent скачан:  51 раз   |   
Раздают:  1  
   
загрузка...
 
Автор Сообщение

Galfimbul

avatar Galfimbul


Пришелец из будущего / Returner / Ritana

Страна: Япония
Жанр: фантастика, боевик, приключения
Год выпуска: 2002
Продолжительность: 01:52:46
Перевод: Профессиональный (двухголосый закадровый)
Cубтитры: нет
Оригинальная аудиодорожка: нет

Режиссер: Такаши Ямазаки / Takashi Yamazaki

В ролях: Такеши Канеширо, Энн Сузуки, Кирин Кики, Горо Кишитани, Юкико Окамото, Митсуру Мурата, Кисуке Иида, Казуя Шимицу, Чихару Кавай, Дин Хэррингтон...

Описание: В недалеком будущем всему человечеству грозит неминуемая гибель из-за конфликта, произошедшего каких-то сто лет назад, между землянами и инопланетянами. На тот момент человечество уже изобрело машину времени и посылает в прошлое девочку Милле в надежде на то, что она сможет повернуть ход истории и нам удастся избежать кровопролития. В нашем настоящем она встречает Масашито — наемного убийцу. Вместе они должны остановить грядущий апокалипсис.

Релиз от -

Сэмпл: http://multi-up.com/1021582

Качество видео: HDRip
Формат видео: AVI

Видео: MPEG-4 Visual at 1410 Кбит/сек; 704 x 304 (2.316) at 23.976 fps
Аудио: AC-3 at 448 Кбит/сек; 6 каналов, 48,0 КГц

Автор -
Общее
Полное имя : D:\Фильмы\Азиатские\Пришелец из будущего\Returner.2002.HDRip.XviD.1400MB. rip by [Assassin's Creed].avi
Формат : AVI
Формат/Информация : Audio Video Interleave
Размер файла : 1,47 Гбайт
Продолжительность : 1 ч. 52 м.
Общий поток : 1866 Кбит/сек
Программа кодирования : VirtualDubMod 1.5.10.3 | www.virtualdub-fr.org || (build 2550/release)
Библиотека кодирования : VirtualDubMod build 2550/release

Видео
Идентификатор : 0
Формат : MPEG-4 Visual
Профиль формата : Advanced Simple@L5
Параметр BVOP формата : 1
Параметр QPel формата : Нет
Параметр GMC формата : Без точки перехода
Параметр матрицы формата : Default (MPEG)
Идентификатор кодека : XVID
Идентификатор кодека/Подсказка : XviD
Продолжительность : 1 ч. 52 м.
Битрейт : 1410 Кбит/сек
Ширина : 704 пикселя
Высота : 304 пикселя
Соотношение сторон : 2,35:1
Частота кадров : 23,976 кадра/сек
Цветовое пространство : YUV
Субдискретизация насыщенности : 4:2:0
Битовая глубина : 8 бит
Тип развёртки : Прогрессивная
Метод сжатия : С потерями
Бит/(Пиксели*Кадры) : 0.275
Размер потока : 1,11 Гбайт (76%)
Библиотека кодирования : XviD 1.2.1 (UTC 2008-12-04)

Аудио
Идентификатор : 1
Формат : AC-3
Формат/Информация : Audio Coding 3
Расширение режима : CM (complete main)
Параметр Endianness формата : Big
Идентификатор кодека : 2000
Продолжительность : 1 ч. 52 м.
Вид битрейта : Постоянный
Битрейт : 448 Кбит/сек
Каналы : 6 каналов
Расположение каналов : Front: L C R, Side: L R, LFE
Частота : 48,0 КГц
Битовая глубина : 16 бит
Метод сжатия : С потерями
Размер потока : 360 Мбайт (24%)
Выравнивание : Разделение по промежуткам
Продолжительность промежутка : 42 мс. (1,00 видеокадр)
Время предзагрузки промежутка : 500 мс.


Трекер:  [ 20-Дек-2014 18:00 ]

  

Скачать .torrent

Размер .torrent файла 15 KB


Размер: 1.47 GB
Хэш (hash) релиза: 921a5ff9c3ef9b77860151c0f2ff23e7c79f1e23
Подписка на обновления:

Еще никто не оставлял запись к записи скачать торрент Пришелец из будущего Returner . Будь первым!

!Обратная связь