Скачать через торрент Пришелец из космоса Это прибыло из космоса Фильм бесплатно в хорошем качестве torrent

Скачивайте на UnionPeer.org фильмы через торрент без регистрации. Новинки кино в хорошем качестве через торрент. На UnionPeer.org можно скачать через торрент фильмы 2014 и 2015 годов. Самые новые фильмы.

Скачать торрент Пришелец из космоса Это прибыло из космоса бесплатно через .torrent фильм мультфильм сериал

Статистика раздачи
Размер:  2.8 GB   |    Зарегистрирован:  4 года 1 месяц   |    .torrent скачан:  36 раз   |   
Раздают:  1  
   
загрузка...
 
Автор Сообщение

Galfimbul

avatar Galfimbul


Пришелец из космоса / Это прибыло из космоса / It Came from Outer Space

Страна: США
Жанр: ужасы, фантастика, триллер, мелодрама
Год выпуска: 1953
Продолжительность: 01:20:06

Перевод: Профессиональный (многоголосый закадровый) - Объединение "Русский дубляж" по заказу СТС
Cубтитры: английские
Оригинальная аудиодорожка: английский

Режиссер: Джек Арнольд / Jack Arnold

В ролях: Ричард Карлсон, Барбара Раш, Чарльз Дрэйк, Джо Сойер, Расселл Джонсон, Кэтлин Хьюз, Ральф Брукс, Роберт Карсон, Нед Девенпорт, Эдгар Диаринг

Описание: Джон Путман и Эллен наблюдают за шумным и сопровождаемым вспышками света падением какого-то крупного объекта вблизи местного рудника. Джон и Эллен — единственные, кто верят, что загадочный объект — не метеорит, а потерпевший крушение космический корабль инопланетян. В последующие дни с некоторыми местными жителями происходят необъяснимые явления.
Джон и Эллен подозревают, что этих людей забирают на космический корабль для экспериментов, а потом после каких-то манипуляций возвращают назад уже измененными. Местный шериф не знает, что и думать об этих фантастических версиях, и снаряжает отряд для разведки. Путман предпочитает провести собственное расследования мирным путем. Без оружия он добровольно поднимается на борт корабля пришельцев.

Доп. информация:


За дорожку с переводом спасибо ghoulie

Сэмпл: http://sendfile.su/1039839

Тип релиза: WEB-DL 720p
Контейнер: MKV

Видео: AVC, 968x720, L3.1, 23.976fps, 4277kbps
Аудио 1: Russian: AC3, 48000Hz, 2ch, 192kbps
Аудио 2: English: AC3, 48000Hz, 2ch, 192kbps - DVD
Аудио 3: English: AAC, 48000Hz, 2ch, 157kbps - WEB-DL
Аудио 4: English: AC3, 48000Hz, 2ch, 192kbps - feature commentary with film historian Tom Weaver
Формат субтитров: softsub (SRT)
Общее
Уникальный идентификатор : 228751134448889191021786821877162482446 (0xAC17DDAFDDF026D99DA152AF875A9B0E)
Полное имя : T:\It Came from Outer Space (WEB-DL 720p).mkv
Формат : Matroska
Версия формата : Version 4 / Version 2
Размер файла : 2,80 Гбайт
Продолжительность : 1 ч. 20 м.
Общий поток : 5010 Кбит/сек
Дата кодирования : UTC 2014-10-25 07:38:14
Программа кодирования : mkvmerge v6.9.1 ('Blue Panther') 64bit built on Apr 18 2014 18:23:38
Библиотека кодирования : libebml v1.3.0 + libmatroska v1.4.1

Видео
Идентификатор : 1
Формат : AVC
Формат/Информация : Advanced Video Codec
Профиль формата : High@L3.1
Параметр CABAC формата : Нет
Параметр ReFrames формата : 2 кадра
Идентификатор кодека : V_MPEG4/ISO/AVC
Продолжительность : 1 ч. 20 м.
Ширина : 968 пикселей
Высота : 720 пикселей
Соотношение сторон : 4:3
Режим частоты кадров : Постоянный
Частота кадров : 23,976 кадра/сек
Цветовое пространство : YUV
Субдискретизация насыщенности : 4:2:0
Битовая глубина : 8 бит
Тип развёртки : Прогрессивная
Язык : English
Default : Да
Forced : Нет
Основные цвета : BT.709
Характеристики трансфера : BT.709
Коэффициенты матрицы : BT.709

Аудио #1
Идентификатор : 2
Формат : AC-3
Формат/Информация : Audio Coding 3
Расширение режима : CM (complete main)
Параметр Endianness формата : Big
Идентификатор кодека : A_AC3
Продолжительность : 1 ч. 20 м.
Вид битрейта : Постоянный
Битрейт : 192 Кбит/сек
Каналы : 2 канала
Расположение каналов : Front: L R
Частота : 48,0 КГц
Битовая глубина : 16 бит
Метод сжатия : С потерями
Размер потока : 110 Мбайт (4%)
Язык : Russian
Default : Да
Forced : Нет

Аудио #2
Идентификатор : 3
Формат : AC-3
Формат/Информация : Audio Coding 3
Расширение режима : CM (complete main)
Параметр Endianness формата : Big
Идентификатор кодека : A_AC3
Продолжительность : 1 ч. 20 м.
Вид битрейта : Постоянный
Битрейт : 192 Кбит/сек
Каналы : 2 канала
Расположение каналов : Front: L R
Частота : 48,0 КГц
Битовая глубина : 16 бит
Метод сжатия : С потерями
Размер потока : 110 Мбайт (4%)
Заголовок : DVD
Язык : English
Default : Нет
Forced : Нет

Аудио #3
Идентификатор : 4
Формат : AAC
Формат/Информация : Advanced Audio Codec
Профиль формата : LC
Идентификатор кодека : A_AAC
Продолжительность : 1 ч. 20 м.
Каналы : 2 канала
Расположение каналов : Front: L R
Частота : 48,0 КГц
Метод сжатия : С потерями
Заголовок : WEB-DL
Язык : English
Default : Нет
Forced : Нет

Аудио #4
Идентификатор : 5
Формат : AC-3
Формат/Информация : Audio Coding 3
Расширение режима : CM (complete main)
Параметр Endianness формата : Big
Идентификатор кодека : A_AC3
Продолжительность : 1 ч. 20 м.
Вид битрейта : Постоянный
Битрейт : 192 Кбит/сек
Каналы : 2 канала
Расположение каналов : Front: L R
Частота : 48,0 КГц
Битовая глубина : 16 бит
Метод сжатия : С потерями
Размер потока : 110 Мбайт (4%)
Заголовок : feature commentary with film historian Tom Weaver
Язык : English
Default : Нет
Forced : Нет

Текст
Идентификатор : 6
Формат : UTF-8
Идентификатор кодека : S_TEXT/UTF8
Идентификатор кодека/Информация : UTF-8 Plain Text
Язык : English
Default : Нет
Forced : Нет

Меню
00:00:00.000 : en:The Writer (Main Titles)
00:03:36.000 : en:A Meteor?
00:10:00.000 : en:The Alien Eye
00:14:30.000 : en:Some Kind of a Ship
00:17:51.000 : en:The Creature
00:20:27.000 : en:Reporters
00:22:22.000 : en:Skeptics
00:32:04.000 : en:Alien Takeover
00:41:38.000 : en:A Warning
00:43:52.000 : en:The Miners
00:52:16.000 : en:The Trouble with Ellen
00:56:32.000 : en:A Request for Help
01:02:19.000 : en:The Sheriff's Orders
01:07:04.000 : en:Desert Showdown
01:12:40.000 : en:Preparing for the End
01:14:55.000 : en:Putnam's Gambit
01:17:42.000 : en:They'll Be Back
01:19:08.000 : en:End Titles


Трекер:  [ 10-Ноя-2014 05:00 ]

  

Скачать .torrent

Размер .torrent файла 14 KB


Размер: 2.8 GB
Хэш (hash) релиза: 56b60851fd9fc451c9404b6c0b3a6b45571d4a99
Подписка на обновления:

Торренты, похожие на Пришелец из космоса Это прибыло из космоса скачать торрент

Форум Название Автор Размер S L Добавлен
3D Фильмы, кино ·· Пришелец из космоса / Это прибыло из космоса / It Came from Outer Space (Джек Арнольд / Jack Arnold) [1953, фантастика, триллер, BDRemux, 1080p] BD3DRemux-MKV Galfimbul 1969346860318.34 GB 0 0 1488208291

18:11

27-Фев-17

Еще никто не оставлял запись к записи скачать торрент Пришелец из космоса Это прибыло из космоса . Будь первым!

!Обратная связь